#TITLE:Piano Concerto No. 1 "Scorpion Fire";
#SUBTITLE:;
#ARTIST:Virkato;
#TITLETRANSLIT:;
#SUBTITLETRANSLIT:;
#ARTISTTRANSLIT:;
#CREDIT:;
#BANNER:bn.png;
#BACKGROUND:bg.png;
#LYRICSPATH:;
#CDTITLE:;
#MUSIC:Virkato - Piano Concerto No. 1 Scorpion Fire.mp3;
#OFFSET:-0.126;
#SAMPLESTART:78.866;
#SAMPLELENGTH:12.000;
#SELECTABLE:YES;
#BPMS:0.000=184.910,200.000=164.990,201.000=165.000,202.000=177.000,205.000=184.000,233.000=180.000,237.000=168.000,239.000=173.000,241.000=174.000,249.000=177.000,251.000=178.000,252.000=179.000,253.000=184.000,273.000=186.000,289.000=188.000,295.000=178.000,297.000=179.000,317.000=182.000,321.000=188.000,322.667=185.000,325.000=188.000,345.000=180.000;
#STOPS:;
#BGCHANGES:;
// cache tags:
#FIRSTBEAT:1.000;
#LASTBEAT:382.000;
#SONGFILENAME:Songs/Music V.I.P ^_^/Virkato - Piano Concerto No. 1 Scorpion Fire/sasoribi.sm;
#HASMUSIC:1;
#HASBANNER:1;
#MUSICLENGTH:130.298;
// end cache tags

//---------------dance-single - ----------------
#NOTES:
     dance-single:
     :
     Challenge:
     14:
     1.000,1.000,1.000,0.000,1.000,856.000,212.000,0.000,0.000,43.000:
0000
1111
0000
0000
,
0000
0000
0010
0000
0000
0000
0000
0000
0000
0010
0000
0000
0000
0000
0000
0000
0000
0000
0000
0000
0000
0000
0000
0000
,
0000
0000
0010
0000
0000
0000
0000
0000
0000
0010
0000
0000
0000
0000
0000
0000
0000
0000
0000
0000
0000
0000
0000
0000
,
0000
0000
0000
1011
,
0000
0000
0000
1110
,
0000
0000
0001
0111
,
0000
0000
0000
0000
,
0000
0000
1011
0000
,
0000
0000
1000
0100
0010
0001
0110
0000
0000
0000
0000
0000
,
0000
0000
1000
0000
0000
0000
0100
0000
0000
0010
0000
0000
0000
0000
0000
0001
0000
0000
0010
0000
0000
0000
0100
0000
0000
0000
0000
1000
0000
0000
0000
0000
0001
0000
0000
0000
0000
0000
0000
1100
0000
0000
0000
0000
0000
0000
0000
0000
,
0000
0000
0000
0000
0011
0000
0000
0000
0000
0000
0000
0000
,
1011
0000
0000
0000
,
0000
0000
0000
0000
0111
0000
0000
0000
0000
0000
0000
0000
1011
0100
0010
0001
,
1000
0100
0001
0100
0010
0001
0010
1000
0001
0100
1000
0100
1001
0100
0010
0001
,
1000
0100
0010
0001
1000
0010
1100
0000
0110
0000
0011
0000
0110
1000
0001
0100
,
0010
1000
0100
0010
0001
0010
0100
1000
0001
0100
1000
0010
1001
0100
1000
0010
,
0100
0001
1000
0100
0010
0001
1100
0000
1001
0000
1010
0000
0101
1000
0100
0010
,
0001
1000
0010
0100
0001
0010
0100
1000
0010
0100
1001
0100
1010
0100
0010
0001
,
1000
0100
0010
1000
0100
0010
0001
0000
0011
0100
1001
0100
0011
0000
0000
0101
,
0101
0000
0100
0000
1000
0010
0001
0100
1000
0100
0010
0001
1000
0010
0001
0100
,
0010
0000
0000
1000
0000
0000
0100
0000
0000
0001
0000
0000
0010
0000
0000
0100
0000
0000
0100
0000
0000
1001
0000
0000
1001
0000
0000
0000
0110
0000
0000
0000
0110
0000
0000
0000
1010
0000
0000
0000
0000
0000
1001
0000
0000
0000
0000
0000
,
0000
0111
0000
0000
0000
0000
0000
0000
,
0000
0000
0000
0000
,
0000
0000
0000
0000
1000
0100
1010
0000
,
0001
1100
0001
1100
,
0001
0101
0010
1011
,
1001
0110
1100
0111
,
0011
0000
1010
0000
0110
0000
0011
1000
,
0101
1000
0110
1000
0101
1000
0100
1000
,
0110
1000
0010
0100
0001
0100
0011
1000
,
0110
0000
0001
1000
0010
0000
1100
0000
0000
1000
0000
0000
0110
0000
0000
1000
0000
0000
1001
0000
0000
0100
0000
0000
,
1001
0010
0101
0010
1001
0100
1011
0100
,
0010
0001
1000
0100
0010
1000
0001
1000
,
0100
0010
1000
0100
0010
0001
1011
0100
,
0010
0001
1100
0110
0011
1000
1011
0100
,
1100
0010
1001
0100
0011
0001
1010
0100
,
0010
0010
0001
1000
0100
0010
1001
0100
,
0011
0000
1001
0100
1010
0100
1001
0100
,
0010
0000
0000
0001
0000
0000
0100
0000
0000
1000
0000
0000
0100
0000
0000
0010
0000
0000
0001
0000
0100
0000
1000
0000
,
0001
0010
1000
0001
0010
0100
1001
0010
0100
1010
0001
0001
,
1000
0010
0010
1000
0100
0100
1000
0010
0010
1001
0100
0100
,
1000
0010
0010
1000
0001
0001
1000
0010
0010
1000
0001
0001
,
1000
0010
0010
1000
0100
0100
1000
0001
0001
1000
0100
0010
,
0101
0000
0001
0001
0010
1000
0100
0010
0001
1010
0001
0100
,
1000
0010
0100
1000
0010
0001
1100
1010
1001
0110
0001
0001
,
0100
0000
0010
0000
0010
0000
1001
0000
0100
0010
0001
0000
1010
0000
1100
0010
1001
0000
0001
0000
0010
0000
0100
0000
,
0010
1000
0010
0001
1000
0011
0100
1010
0100
1011
0010
0010
,
1101
0100
0100
1101
0010
0010
1001
0010
0100
1011
1000
0100
,
0010
0001
0000
1001
0100
0010
0001
0010
0100
1001
0100
0010
,
1001
0000
0000
0000
0000
0000
0000
0000
0000
0000
0000
0000
0000
0000
0000
0000
0100
0000
0000
0000
0000
0000
0000
0000
0000
0000
0000
0000
0000
0000
0000
0000
0010
0000
0000
0000
0000
0000
0000
0000
0000
0000
0000
0000
0000
0000
0000
0000
0101
0000
0000
0000
0000
0000
0000
0000
0000
0000
0000
0000
0000
0000
0000
0000
1010
0000
0000
0000
0000
0000
0000
0000
0000
0000
0000
0000
0000
0000
0000
0000
0101
0000
0000
0000
0000
0000
0000
0000
0000
0000
0000
0000
0000
0000
0000
0000
1001
0000
0000
0000
0000
0000
0000
0000
0000
0000
0000
0000
0000
0000
0000
0000
0110
0000
0000
0000
0000
0000
0000
0000
0000
0000
0000
0000
0000
0000
0000
0000
1001
0000
0000
0000
0000
0000
0000
0000
0000
0000
0000
0000
1000
0000
0000
0000
0100
0000
0000
0010
0000
0000
0000
0000
0000
0001
0000
0000
0000
0000
0000
0000
0100
0000
0000
0000
0000
0000
0000
0000
1000
0000
0000
0000
0000
0000
0000
0000
0000
0000
0000
0000
0000
0000
0000
0000
0000
0000
0000
0000
0000
0000
0000
0000
,
0000
0000
0000
0000
0000
0000
0000
0000
0000
0000
0000
0000
0001
0000
0000
0000
0010
0000
0000
0000
0100
0000
0000
0000
1001
0000
0000
0010
0000
0000
0100
0000
0000
1000
0000
0000
0010
0000
0000
0000
0000
0000
0101
0000
0000
0000
0000
0000
,
1001
0000
1010
0000
0011
0000
1100
0000
0000
0000
1000
0100
0010
1000
0100
0010
,
0001
0100
0010
0001
0110
0000
1010
0000
0000
1000
0100
0001
1010
0100
0010
1000
,
0001
0010
0100
0001
1010
0000
0110
0000
0000
1000
0100
0001
0010
1000
0100
0010
,
0001
0010
0100
0001
1010
0000
1000
0100
0010
0100
0001
0010
0100
1000
0010
1000
,
0010
0100
1000
0101
1010
0100
0010
0001
0100
0000
0001
1000
0001
1000
0010
1000
,
0100
1000
0001
1000
0011
0100
0010
0001
1000
0100
0010
0001
0100
0010
0100
1000
,
0010
1000
0001
1000
0010
1000
0100
0001
1000
0010
0100
0001
1000
0100
0010
0001
,
1000
0100
0010
0100
0001
0010
0100
1000
0001
0010
0100
1000
0001
0010
0100
1000
,
0001
0010
0100
1000
0001
0010
0100
1000
0100
1000
0001
0010
0100
0000
1110
0000
,
1101
0000
1011
0000
0111
0000
1010
0000
0000
1000
0100
0010
0001
1000
0100
0010
,
1001
0100
1010
0001
1110
0000
0101
0000
0000
1000
0100
0010
0101
0010
0001
0100
,
1001
0010
1001
0010
1101
0000
1010
0000
1000
0100
0010
0001
1000
0100
0010
0100
,
1001
0100
1010
0001
1110
0000
0001
0010
0100
1000
0100
0010
0001
0000
0001
0010
,
1001
0010
1100
0001
1110
0000
0000
0000
0100
0010
0001
1000
0010
0100
0001
0100
,
1010
0100
1001
0100
1011
0000
0100
0000
1000
0100
0010
0001
0100
1000
0010
0100
,
1010
0001
1010
0001
1111
0000
0000
0001
0001
0100
0100
0000
1000
0100
0001
1000
,
0100
0010
0001
1000
0101
0101
0000
0101
0000
0101
0000
0101
1000
0100
0010
0001
,
0010
0100
1000
0010
0001
1000
0100
0010
0001
0010
0100
1000
0001
1000
0100
0010
,
0001
0010
0100
1000
0001
1000
0100
0001
1000
0001
0010
0100
0001
0100
0010
0001
,
0110
1000
0010
0001
0110
1000
0100
0001
0010
1000
0100
0001
0010
1000
0100
0001
,
0010
0000
0000
1000
0000
0000
0100
0000
0000
0001
0000
0000
0010
0000
0000
1000
0000
0000
0100
0000
0010
0000
0001
0000
0100
0000
0000
0001
0000
0000
1000
0000
0100
0000
0010
0000
0001
0000
0000
1000
0000
0000
0100
0000
0000
0010
0000
0000
,
0001
0000
0000
1000
0000
0000
0100
0000
0010
0000
0001
0000
1010
0000
0000
0000
0000
0000
1001
0000
0000
0000
0000
0000
1010
0000
0000
0100
0000
0000
0010
0000
0001
1000
0010
0000
0101
0000
0000
0000
0000
0000
1001
0000
0000
0000
0000
0000
,
1100
0000
0000
0010
0000
0000
0100
0000
0001
0000
0010
0000
1100
0000
0000
0000
0000
0000
1001
0000
0000
0000
0000
0000
1100
0000
0000
0010
0000
0000
0001
0000
0100
0000
0001
0000
1010
0000
0000
0000
0000
0000
1001
0000
0000
0000
0000
0000
,
1100
0000
0000
0010
0000
0000
0001
0000
1000
0100
0010
0000
1101
0000
0000
0000
0000
0000
0100
0000
0000
0000
0000
0000
0011
0000
0000
0000
0000
0000
0100
0000
0000
0000
0000
0000
0011
0000
0000
0000
0000
0000
0100
0000
0000
0000
0000
0000
,
0010
0100
0011
1000
0010
0100
0010
1001
,
0100
0010
0101
1000
0110
1000
0110
1000
,
0101
0000
0110
1000
0010
0001
1000
0100
,
0010
0001
0000
0000
0000
0000
0000
0000
,
0000
0000
0000
0000
,
0101
0000
1000
0000
1011
0000
0000
0000
1000
0100
0010
0001
0010
0000
0000
0000
,
1000
0100
0001
0010
0100
0000
0000
0000
1000
0100
0010
0001
0100
0000
0000
0000
,
1010
0000
0000
0100
0000
0000
0010
0000
0000
0001
0000
0000
1111
0000
0000
0000
0000
0000
0000
0000
0000
0000
0000
0000
1000
0000
0100
0000
0010
0000
0100
0000
0010
0000
0001
0000
1111
0000
0000
0000
0000
0000
0000
0000
0000
0000
0000
0000
,
1000
0100
0010
0001
0100
0010
1111
0000
0000
0000
0000
0000
1000
0100
0010
0001
0010
0100
1011
0000
0110
0000
0110
0000
,
0101
0011
0011
1000
0011
0011
1000
0110
0110
1000
0011
0011
,
1000
0110
0110
1000
0101
0101
1011
0011
0011
1110
0110
0110
,
1110
0000
0110
0000
0101
0000
0001
0010
0100
1000
0000
0000
0111
0000
0000
0000
0000
0000
0000
0000
0000
0000
0000
0000
,
0000
0000
0000
0000
,
0000
0000
0000
1110
,
0000
0000
0000
1101
,
0000
0000
0000
0000
0000
0000
0000
0001
0000
0000
1101
0000
,
0000
0000
0000
0000
,
0000
0000
0000
0000
0000
0000
0000
1110
,
0000
0000
0000
0000
0000
0000
0000
0000
0000
0000
0000
0000
0000
0000
0000
0000
0000
0000
0100
0000
0000
0000
0000
0000
0000
0000
0000
0000
0010
0000
0000
0000
0000
0000
0000
0000
0000
0000
0000
0001
0000
0000
0000
0000
0000
0000
0000
0000
,
1010
0100
0000
0000
0000
0000
0000
0000
0000
0000
0000
0000
0000
0000
0000
0000
0000
0000
0000
0000
0000
0000
0000
0000
0000
0000
0000
0000
0000
0000
0000
0000
0000
0001
0000
0000
0000
0000
0000
0000
0000
0000
0000
0000
0000
0000
0000
0000
,
0000
0100
0000
0000
0000
0000
1110
0000
0000
0000
0000
0000
;
